  0
SECTION
  2
HEADER
  9
$ACADVER
  1
AC1015
  9
$ACADMAINTVER
 70
    20
  9
$DWGCODEPAGE
  3
ANSI_1252
  9
$INSBASE
 10
0.0
 20
0.0
 30
0.0
  9
$EXTMIN
 10
1.773695609148213
 20
4.578067510193743
 30
0.0
  9
$EXTMAX
 10
9.850586302992017
 20
8.244179596420057
 30
0.0
  9
$LIMMIN
 10
0.0
 20
0.0
  9
$LIMMAX
 10
12.0
 20
9.0
  9
$ORTHOMODE
 70
     0
  9
$REGENMODE
 70
     1
  9
$FILLMODE
 70
     1
  9
$QTEXTMODE
 70
     0
  9
$MIRRTEXT
 70
     1
  9
$LTSCALE
 40
1.0
  9
$ATTMODE
 70
     1
  9
$TEXTSIZE
 40
0.2
  9
$TRACEWID
 40
0.05
  9
$TEXTSTYLE
  7
Standard
  9
$CLAYER
  8
0
  9
$CELTYPE
  6
ByLayer
  9
$CECOLOR
 62
   256
  9
$CELTSCALE
 40
1.0
  9
$DISPSILH
 70
     0
  9
$DIMSCALE
 40
1.0
  9
$DIMASZ
 40
0.18
  9
$DIMEXO
 40
0.0625
  9
$DIMDLI
 40
0.38
  9
$DIMRND
 40
0.0
  9
$DIMDLE
 40
0.0
  9
$DIMEXE
 40
0.18
  9
$DIMTP
 40
0.0
  9
$DIMTM
 40
0.0
  9
$DIMTXT
 40
0.18
  9
$DIMCEN
 40
0.09
  9
$DIMTSZ
 40
0.0
  9
$DIMTOL
 70
     0
  9
$DIMLIM
 70
     0
  9
$DIMTIH
 70
     1
  9
$DIMTOH
 70
     1
  9
$DIMSE1
 70
     0
  9
$DIMSE2
 70
     0
  9
$DIMTAD
 70
     0
  9
$DIMZIN
 70
     0
  9
$DIMBLK
  1

  9
$DIMASO
 70
     1
  9
$DIMSHO
 70
     1
  9
$DIMPOST
  1

  9
$DIMAPOST
  1

  9
$DIMALT
 70
     0
  9
$DIMALTD
 70
     2
  9
$DIMALTF
 40
25.4
  9
$DIMLFAC
 40
1.0
  9
$DIMTOFL
 70
     0
  9
$DIMTVP
 40
0.0
  9
$DIMTIX
 70
     0
  9
$DIMSOXD
 70
     0
  9
$DIMSAH
 70
     0
  9
$DIMBLK1
  1

  9
$DIMBLK2
  1

  9
$DIMSTYLE
  2
Standard
  9
$DIMCLRD
 70
     0
  9
$DIMCLRE
 70
     0
  9
$DIMCLRT
 70
     0
  9
$DIMTFAC
 40
1.0
  9
$DIMGAP
 40
0.09
  9
$DIMJUST
 70
     0
  9
$DIMSD1
 70
     0
  9
$DIMSD2
 70
     0
  9
$DIMTOLJ
 70
     1
  9
$DIMTZIN
 70
     0
  9
$DIMALTZ
 70
     0
  9
$DIMALTTZ
 70
     0
  9
$DIMUPT
 70
     0
  9
$DIMDEC
 70
     2
  9
$DIMTDEC
 70
     2
  9
$DIMALTU
 70
     2
  9
$DIMALTTD
 70
     2
  9
$DIMTXSTY
  7
Standard
  9
$DIMAUNIT
 70
     0
  9
$DIMADEC
 70
     0
  9
$DIMALTRND
 40
0.0
  9
$DIMAZIN
 70
     0
  9
$DIMDSEP
 70
    46
  9
$DIMATFIT
 70
     3
  9
$DIMFRAC
 70
     0
  9
$DIMLDRBLK
  1

  9
$DIMLUNIT
 70
     2
  9
$DIMLWD
 70
    -2
  9
$DIMLWE
 70
    -2
  9
$DIMTMOVE
 70
     0
  9
$LUNITS
 70
     2
  9
$LUPREC
 70
     4
  9
$SKETCHINC
 40
0.1
  9
$FILLETRAD
 40
0.5
  9
$AUNITS
 70
     0
  9
$AUPREC
 70
     0
  9
$MENU
  1
.
  9
$ELEVATION
 40
0.0
  9
$PELEVATION
 40
0.0
  9
$THICKNESS
 40
0.0
  9
$LIMCHECK
 70
     0
  9
$CHAMFERA
 40
0.5
  9
$CHAMFERB
 40
0.5
  9
$CHAMFERC
 40
1.0
  9
$CHAMFERD
 40
0.0
  9
$SKPOLY
 70
     0
  9
$TDCREATE
 40
2452317.364005903
  9
$TDUCREATE
 40
2452317.572339236
  9
$TDUPDATE
 40
2454097.487845544
  9
$TDUUPDATE
 40
2454097.696178878
  9
$TDINDWG
 40
0.0028028704
  9
$TDUSRTIMER
 40
0.0028028704
  9
$USRTIMER
 70
     1
  9
$ANGBASE
 50
0.0
  9
$ANGDIR
 70
     0
  9
$PDMODE
 70
     0
  9
$PDSIZE
 40
0.0
  9
$PLINEWID
 40
0.0
  9
$SPLFRAME
 70
     0
  9
$SPLINETYPE
 70
     6
  9
$SPLINESEGS
 70
     8
  9
$HANDSEED
  5
170
  9
$SURFTAB1
 70
     6
  9
$SURFTAB2
 70
     6
  9
$SURFTYPE
 70
     6
  9
$SURFU
 70
     6
  9
$SURFV
 70
     6
  9
$UCSBASE
  2

  9
$UCSNAME
  2

  9
$UCSORG
 10
0.0
 20
0.0
 30
0.0
  9
$UCSXDIR
 10
1.0
 20
0.0
 30
0.0
  9
$UCSYDIR
 10
0.0
 20
1.0
 30
0.0
  9
$UCSORTHOREF
  2

  9
$UCSORTHOVIEW
 70
     0
  9
$UCSORGTOP
 10
0.0
 20
0.0
 30
0.0
  9
$UCSORGBOTTOM
 10
0.0
 20
0.0
 30
0.0
  9
$UCSORGLEFT
 10
0.0
 20
0.0
 30
0.0
  9
$UCSORGRIGHT
 10
0.0
 20
0.0
 30
0.0
  9
$UCSORGFRONT
 10
0.0
 20
0.0
 30
0.0
  9
$UCSORGBACK
 10
0.0
 20
0.0
 30
0.0
  9
$PUCSBASE
  2

  9
$PUCSNAME
  2

  9
$PUCSORG
 10
0.0
 20
0.0
 30
0.0
  9
$PUCSXDIR
 10
1.0
 20
0.0
 30
0.0
  9
$PUCSYDIR
 10
0.0
 20
1.0
 30
0.0
  9
$PUCSORTHOREF
  2

  9
$PUCSORTHOVIEW
 70
     0
  9
$PUCSORGTOP
 10
0.0
 20
0.0
 30
0.0
  9
$PUCSORGBOTTOM
 10
0.0
 20
0.0
 30
0.0
  9
$PUCSORGLEFT
 10
0.0
 20
0.0
 30
0.0
  9
$PUCSORGRIGHT
 10
0.0
 20
0.0
 30
0.0
  9
$PUCSORGFRONT
 10
0.0
 20
0.0
 30
0.0
  9
$PUCSORGBACK
 10
0.0
 20
0.0
 30
0.0
  9
$USERI1
 70
     0
  9
$USERI2
 70
     0
  9
$USERI3
 70
     0
  9
$USERI4
 70
     0
  9
$USERI5
 70
     0
  9
$USERR1
 40
0.0
  9
$USERR2
 40
0.0
  9
$USERR3
 40
0.0
  9
$USERR4
 40
0.0
  9
$USERR5
 40
0.0
  9
$WORLDVIEW
 70
     1
  9
$SHADEDGE
 70
     3
  9
$SHADEDIF
 70
    70
  9
$TILEMODE
 70
     1
  9
$MAXACTVP
 70
    64
  9
$PINSBASE
 10
0.0
 20
0.0
 30
0.0
  9
$PLIMCHECK
 70
     0
  9
$PEXTMIN
 10
1.000000000000000E+20
 20
1.000000000000000E+20
 30
1.000000000000000E+20
  9
$PEXTMAX
 10
-1.000000000000000E+20
 20
-1.000000000000000E+20
 30
-1.000000000000000E+20
  9
$PLIMMIN
 10
0.0
 20
0.0
  9
$PLIMMAX
 10
12.0
 20
9.0
  9
$UNITMODE
 70
     0
  9
$VISRETAIN
 70
     1
  9
$PLINEGEN
 70
     0
  9
$PSLTSCALE
 70
     1
  9
$TREEDEPTH
 70
  3020
  9
$CMLSTYLE
  2
Standard
  9
$CMLJUST
 70
     0
  9
$CMLSCALE
 40
1.0
  9
$PROXYGRAPHICS
 70
     1
  9
$MEASUREMENT
 70
     0
  9
$CELWEIGHT
370
    -1
  9
$ENDCAPS
280
     0
  9
$JOINSTYLE
280
     0
  9
$LWDISPLAY
290
     0
  9
$INSUNITS
 70
     1
  9
$HYPERLINKBASE
  1

  9
$STYLESHEET
  1

  9
$XEDIT
290
     1
  9
$CEPSNTYPE
380
     0
  9
$PSTYLEMODE
290
     1
  9
$FINGERPRINTGUID
  2
{DC175E3D-AE85-11D5-9A93-0040C77E826B}
  9
$VERSIONGUID
  2
{4FFC74AC-0573-4B3A-AB86-7E0A46469782}
  9
$EXTNAMES
290
     1
  9
$PSVPSCALE
 40
0.0
  9
$OLESTARTUP
290
     0
  0
ENDSEC
  0
SECTION
  2
CLASSES
  0
CLASS
  1
ACDBDICTIONARYWDFLT
  2
AcDbDictionaryWithDefault
  3
ObjectDBX Classes
 90
        0
280
     0
281
     0
  0
CLASS
  1
ACDBPLACEHOLDER
  2
AcDbPlaceHolder
  3
ObjectDBX Classes
 90
        0
280
     0
281
     0
  0
CLASS
  1
LAYOUT
  2
AcDbLayout
  3
ObjectDBX Classes
 90
        0
280
     0
281
     0
  0
CLASS
  1
TABLESTYLE
  2
AcDbTableStyle
  3
ObjectDBX Classes
 90
     2047
280
     0
281
     0
  0
CLASS
  1
SORTENTSTABLE
  2
AcDbSortentsTable
  3
ObjectDBX Classes
 90
        0
280
     0
281
     0
  0
CLASS
  1
DICTIONARYVAR
  2
AcDbDictionaryVar
  3
ObjectDBX Classes
 90
        0
280
     0
281
     0
  0
ENDSEC
  0
SECTION
  2
TABLES
  0
TABLE
  2
VPORT
  5
8
330
0
100
AcDbSymbolTable
 70
     4
  0
VPORT
  5
168
330
8
100
AcDbSymbolTableRecord
100
AcDbViewportTableRecord
  2
*Active
 70
     0
 10
0.0
 20
0.0
 11
1.0
 21
1.0
 12
6.598475222246504
 22
5.283088231257247
 13
0.0
 23
0.0
 14
0.5
 24
0.5
 15
0.5
 25
0.5
 16
0.0
 26
0.0
 36
1.0
 17
0.0
 27
0.0
 37
0.0
 40
8.99999999580908
 41
1.466327827191867
 42
50.0
 43
0.0
 44
0.0
 50
0.0
 51
0.0
 71
     0
 72
   100
 73
     1
 74
     3
 75
     0
 76
     0
 77
     0
 78
     0
281
     0
 65
     1
110
0.0
120
0.0
130
0.0
111
1.0
121
0.0
131
0.0
112
0.0
122
1.0
132
0.0
 79
     0
146
0.0
  0
ENDTAB
  0
TABLE
  2
LTYPE
  5
5
330
0
100
AcDbSymbolTable
 70
     1
  0
LTYPE
  5
14
330
5
100
AcDbSymbolTableRecord
100
AcDbLinetypeTableRecord
  2
ByBlock
 70
     0
  3

 72
    65
 73
     0
 40
0.0
  0
LTYPE
  5
15
330
5
100
AcDbSymbolTableRecord
100
AcDbLinetypeTableRecord
  2
ByLayer
 70
     0
  3

 72
    65
 73
     0
 40
0.0
  0
LTYPE
  5
16
330
5
100
AcDbSymbolTableRecord
100
AcDbLinetypeTableRecord
  2
Continuous
 70
     0
  3
Solid line
 72
    65
 73
     0
 40
0.0
  0
ENDTAB
  0
TABLE
  2
LAYER
  5
2
102
{ACAD_XDICTIONARY
360
131
102
}
330
0
100
AcDbSymbolTable
 70
     5
  0
LAYER
  5
10
330
2
100
AcDbSymbolTableRecord
100
AcDbLayerTableRecord
  2
0
 70
     0
 62
     7
  6
Continuous
370
    -3
390
F
  0
LAYER
  5
34
330
2
100
AcDbSymbolTableRecord
100
AcDbLayerTableRecord
  2
L
 70
     0
 62
     7
  6
Continuous
370
    -3
390
F
  0
LAYER
  5
45
330
2
100
AcDbSymbolTableRecord
100
AcDbLayerTableRecord
  2
Defpoints
 70
     0
 62
     7
  6
Continuous
290
     0
370
    -3
390
F
  0
LAYER
  5
88
330
2
100
AcDbSymbolTableRecord
100
AcDbLayerTableRecord
  2
tx
 70
     0
 62
   150
  6
Continuous
370
    -3
390
F
  0
LAYER
  5
128
330
2
100
AcDbSymbolTableRecord
100
AcDbLayerTableRecord
  2
MAIN
 70
     0
 62
     7
  6
Continuous
370
    -3
390
F
  0
ENDTAB
  0
TABLE
  2
STYLE
  5
3
330
0
100
AcDbSymbolTable
 70
     6
  0
STYLE
  5
11
330
3
100
AcDbSymbolTableRecord
100
AcDbTextStyleTableRecord
  2
Standard
 70
     0
 40
0.0
 41
1.0
 50
0.0
 71
     0
 42
0.2
  3
txt
  4

  0
STYLE
  5
35
330
3
100
AcDbSymbolTableRecord
100
AcDbTextStyleTableRecord
  2
REG
 70
     0
 40
0.0
 41
1.0
 50
0.0
 71
     0
 42
0.09375
  3
E:\R13\com\fonts\ARCHITXT.SHX
  4

  0
STYLE
  5
36
330
3
100
AcDbSymbolTableRecord
100
AcDbTextStyleTableRecord
  2
DIMTXT
 70
     0
 40
0.0
 41
1.0
 50
0.0
 71
     0
 42
1.125
  3
archt.shx
  4

  0
STYLE
  5
129
330
3
100
AcDbSymbolTableRecord
100
AcDbTextStyleTableRecord
  2
BLD
 70
     0
 40
0.0
 41
1.0
 50
0.0
 71
     0
 42
0.1875
  3
romand.shx
  4

  0
STYLE
  5
12A
330
3
100
AcDbSymbolTableRecord
100
AcDbTextStyleTableRecord
  2
REG2
 70
     0
 40
0.0
 41
0.9
 50
0.0
 71
     0
 42
0.75
  3
E:\R13\com\fonts\romans.shx
  4

  0
STYLE
  5
12B
330
3
100
AcDbSymbolTableRecord
100
AcDbTextStyleTableRecord
  2
ROM2
 70
     0
 40
0.0
 41
0.95
 50
0.0
 71
     0
 42
1.0
  3
ROMANS
  4

  0
ENDTAB
  0
TABLE
  2
VIEW
  5
6
330
0
100
AcDbSymbolTable
 70
     0
  0
ENDTAB
  0
TABLE
  2
UCS
  5
7
330
0
100
AcDbSymbolTable
 70
     0
  0
ENDTAB
  0
TABLE
  2
APPID
  5
9
330
0
100
AcDbSymbolTable
 70
     2
  0
APPID
  5
12
330
9
100
AcDbSymbolTableRecord
100
AcDbRegAppTableRecord
  2
ACAD
 70
     0
  0
APPID
  5
130
330
9
100
AcDbSymbolTableRecord
100
AcDbRegAppTableRecord
  2
ACAD_PSEXT
 70
     0
  0
ENDTAB
  0
TABLE
  2
DIMSTYLE
  5
A
330
0
100
AcDbSymbolTable
 70
    10
100
AcDbDimStyleTable
 71
     1
340
27
  0
DIMSTYLE
105
27
102
{ACAD_REACTORS
330
13E
330
14C
102
}
330
A
100
AcDbSymbolTableRecord
100
AcDbDimStyleTableRecord
  2
Standard
 70
     0
271
     2
272
     2
340
11
  0
DIMSTYLE
105
37
330
A
100
AcDbSymbolTableRecord
100
AcDbDimStyleTableRecord
  2
1
 70
     0
 41
1.125
 42
0.5
 43
0.375
 44
1.19921875
 46
0.5
 73
     0
 74
     0
 77
     1
 78
     3
140
1.125
141
0.125
146
0.8
147
0.5625
172
     1
174
     1
176
   133
177
   133
178
   150
271
     3
272
     3
276
     1
279
     1
340
36
  0
DIMSTYLE
105
38
330
A
100
AcDbSymbolTableRecord
100
AcDbDimStyleTableRecord
  2
1$2
 70
     0
 41
1.5
 42
0.5
 43
0.375
 44
1.19921875
 46
0.5
 73
     0
 74
     0
 77
     1
 78
     3
140
0.75
141
0.125
146
0.8
147
0.5625
172
     1
174
     1
176
   133
177
   133
178
   150
271
     3
272
     3
276
     1
279
     1
340
36
342
30
  0
DIMSTYLE
105
39
330
A
100
AcDbSymbolTableRecord
100
AcDbDimStyleTableRecord
  2
1$4
 70
     0
 41
1.5
 42
0.5
 43
0.375
 44
1.19921875
 46
0.5
 73
     0
 74
     0
 77
     1
 78
     3
140
0.75
141
0.125
146
0.8
147
0.5625
172
     1
173
     1
174
     1
176
   133
177
   133
178
   150
271
     3
272
     3
276
     1
279
     1
340
36
344
30
  0
DIMSTYLE
105
3A
330
A
100
AcDbSymbolTableRecord
100
AcDbDimStyleTableRecord
  2
1$3
 70
     0
 41
1.5
 42
0.5
 43
0.375
 44
1.19921875
 46
0.5
 73
     0
 74
     0
 77
     1
 78
     3
140
0.75
141
0.125
146
0.8
147
0.5625
172
     1
174
     1
176
   133
177
   133
178
   150
271
     3
272
     3
276
     1
279
     1
340
36
342
30
  0
DIMSTYLE
105
3B
330
A
100
AcDbSymbolTableRecord
100
AcDbDimStyleTableRecord
  2
1$7
 70
     0
 41
1.0
 42
0.5
 43
0.375
 44
1.19921875
 46
0.5
 73
     0
 74
     0
 77
     1
 78
     3
140
0.75
141
0.125
146
0.8
147
0.5625
172
     1
174
     1
176
   133
177
   133
178
   150
271
     3
272
     3
276
     1
279
     1
340
36
341
2B
  0
DIMSTYLE
105
12C
330
A
100
AcDbSymbolTableRecord
100
AcDbDimStyleTableRecord
  2
Standard$2
 70
     0
 40
0.0
 41
0.625
 42
0.5
 43
0.375
 44
0.375
 78
     4
 79
     1
140
0.625
141
0.125
146
0.8
147
0.25
176
   133
177
   133
178
   150
271
     3
272
     3
276
     1
288
     1
340
12B
  0
DIMSTYLE
105
12D
330
A
100
AcDbSymbolTableRecord
100
AcDbDimStyleTableRecord
  2
Standard$4
 70
     0
 40
0.0
 41
0.625
 42
0.5
 43
0.375
 44
0.375
 78
     4
 79
     1
140
0.625
141
0.125
146
0.8
147
0.25
173
     1
176
   133
177
   133
178
   150
271
     3
272
     3
276
     1
288
     1
340
12B
343
30
  0
DIMSTYLE
105
12E
330
A
100
AcDbSymbolTableRecord
100
AcDbDimStyleTableRecord
  2
Standard$3
 70
     0
 40
0.0
 41
0.625
 42
0.5
 43
0.375
 44
0.375
 78
     4
 79
     1
140
0.625
141
0.125
146
0.8
147
0.25
176
   133
177
   133
178
   150
271
     3
272
     3
276
     1
288
     1
340
12B
  0
DIMSTYLE
105
12F
330
A
100
AcDbSymbolTableRecord
100
AcDbDimStyleTableRecord
  2
Standard$7
 70
     0
 40
0.0
 41
0.625
 42
0.5
 43
0.375
 44
0.375
 78
     4
 79
     1
140
0.5
141
0.125
146
0.8
147
0.25
176
   133
177
   133
178
   150
271
     3
272
     3
276
     1
289
     0
340
12B
342
30
  0
ENDTAB
  0
TABLE
  2
BLOCK_RECORD
  5
1
330
0
100
AcDbSymbolTable
 70
     8
  0
BLOCK_RECORD
  5
1F
330
1
100
AcDbSymbolTableRecord
100
AcDbBlockTableRecord
  2
*Model_Space
340
22
  0
BLOCK_RECORD
  5
1B
330
1
100
AcDbSymbolTableRecord
100
AcDbBlockTableRecord
  2
*Paper_Space
340
1E
  0
BLOCK_RECORD
  5
23
330
1
100
AcDbSymbolTableRecord
100
AcDbBlockTableRecord
  2
*Paper_Space0
340
26
  0
BLOCK_RECORD
  5
2B
330
1
100
AcDbSymbolTableRecord
100
AcDbBlockTableRecord
  2
_Dot
340
0
  0
BLOCK_RECORD
  5
30
330
1
100
AcDbSymbolTableRecord
100
AcDbBlockTableRecord
  2
_DotSmall
340
0
  0
BLOCK_RECORD
  5
C2
330
1
100
AcDbSymbolTableRecord
100
AcDbBlockTableRecord
  2
*D3
340
0
  0
BLOCK_RECORD
  5
D0
330
1
100
AcDbSymbolTableRecord
100
AcDbBlockTableRecord
  2
*D4
340
0
  0
BLOCK_RECORD
  5
13F
330
1
100
AcDbSymbolTableRecord
100
AcDbBlockTableRecord
  2
*D6
340
0
  0
BLOCK_RECORD
  5
14D
330
1
100
AcDbSymbolTableRecord
100
AcDbBlockTableRecord
  2
*D7
340
0
  0
ENDTAB
  0
ENDSEC
  0
SECTION
  2
BLOCKS
  0
BLOCK
  5
20
330
1F
100
AcDbEntity
  8
0
100
AcDbBlockBegin
  2
*Model_Space
 70
     0
 10
0.0
 20
0.0
 30
0.0
  3
*Model_Space
  1

  0
ENDBLK
  5
21
330
1F
100
AcDbEntity
  8
0
100
AcDbBlockEnd
  0
BLOCK
  5
1C
330
1B
100
AcDbEntity
 67
     1
  8
0
100
AcDbBlockBegin
  2
*Paper_Space
 70
     0
 10
0.0
 20
0.0
 30
0.0
  3
*Paper_Space
  1

  0
ENDBLK
  5
1D
330
1B
100
AcDbEntity
 67
     1
  8
0
100
AcDbBlockEnd
  0
BLOCK
  5
24
330
23
100
AcDbEntity
  8
0
100
AcDbBlockBegin
  2
*Paper_Space0
 70
     0
 10
0.0
 20
0.0
 30
0.0
  3
*Paper_Space0
  1

  0
ENDBLK
  5
25
330
23
100
AcDbEntity
  8
0
100
AcDbBlockEnd
  0
BLOCK
  5
2E
330
2B
100
AcDbEntity
  8
0
100
AcDbBlockBegin
  2
_Dot
 70
     0
 10
0.0
 20
0.0
 30
0.0
  3
_Dot
  1

  0
LWPOLYLINE
  5
2C
330
2B
100
AcDbEntity
  8
L
 62
     0
100
AcDbPolyline
 90
        2
 70
     1
 43
0.5
 10
-0.25
 20
0.0
 42
1.0
 10
0.25
 20
0.0
 42
1.0
  0
LINE
  5
2D
330
2B
100
AcDbEntity
  8
L
 62
     0
370
    -2
100
AcDbLine
 10
-0.5
 20
0.0
 30
0.0
 11
-1.0
 21
0.0
 31
0.0
  0
ENDBLK
  5
2F
330
2B
100
AcDbEntity
  8
0
100
AcDbBlockEnd
  0
BLOCK
  5
32
330
30
100
AcDbEntity
  8
0
 48
0.116666
100
AcDbBlockBegin
  2
_DotSmall
 70
     0
 10
0.0
 20
0.0
 30
0.0
  3
_DotSmall
  1

  0
LWPOLYLINE
  5
31
330
30
100
AcDbEntity
  8
0
  6
ByBlock
 62
     0
100
AcDbPolyline
 90
        2
 70
     1
 43
0.5
 10
-0.0625
 20
0.0
 42
1.0
 10
0.0625
 20
0.0
 42
1.0
  0
ENDBLK
  5
33
330
30
100
AcDbEntity
  8
0
 48
0.116666
100
AcDbBlockEnd
  0
BLOCK
  5
CD
330
C2
100
AcDbEntity
  8
0
100
AcDbBlockBegin
  2
*D3
 70
     1
 10
0.0
 20
0.0
 30
0.0
  3
*D3
  1

  0
LINE
  5
C3
330
C2
100
AcDbEntity
  8
0
 62
     0
370
    -2
100
AcDbLine
 10
3.10231778734557
 20
6.519875977852701
 30
0.0
 11
3.10231778734557
 21
7.798461543415481
 31
0.0
  0
LINE
  5
C4
330
C2
100
AcDbEntity
  8
0
 62
     0
370
    -2
100
AcDbLine
 10
9.850586302992017
 20
6.233077906773957
 30
0.0
 11
9.850586302992017
 21
7.798461543415481
 31
0.0
  0
LINE
  5
C5
330
C2
100
AcDbEntity
  8
0
 62
     0
370
    -2
100
AcDbLine
 10
3.28231778734557
 20
7.618461543415481
 30
0.0
 11
6.116452045168793
 21
7.618461543415481
 31
0.0
  0
LINE
  5
C6
330
C2
100
AcDbEntity
  8
0
 62
     0
370
    -2
100
AcDbLine
 10
9.670586302992017
 20
7.618461543415481
 30
0.0
 11
6.836452045168794
 21
7.618461543415481
 31
0.0
  0
SOLID
  5
C7
330
C2
100
AcDbEntity
  8
0
 62
     0
100
AcDbTrace
 10
3.28231778734557
 20
7.648461543415481
 30
0.0
 11
3.28231778734557
 21
7.588461543415481
 31
0.0
 12
3.10231778734557
 22
7.618461543415481
 32
0.0
 13
3.10231778734557
 23
7.618461543415481
 33
0.0
  0
SOLID
  5
C8
330
C2
100
AcDbEntity
  8
0
 62
     0
100
AcDbTrace
 10
9.670586302992017
 20
7.648461543415481
 30
0.0
 11
9.670586302992017
 21
7.588461543415481
 31
0.0
 12
9.850586302992017
 22
7.618461543415481
 32
0.0
 13
9.850586302992017
 23
7.618461543415481
 33
0.0
  0
MTEXT
  5
C9
330
C2
100
AcDbEntity
  8
0
 62
     0
100
AcDbMText
 10
6.476452045168794
 20
7.618461543415481
 30
0.0
 40
0.18
 41
0.0
 71
     5
 72
     1
  1
\A1;6.75
 73
     1
 44
1.0
1001
ACAD
1000
MTEXTBEGIN
1070
    73
1070
     1
1070
    44
1040
1.0
1070
    74
1070
     0
1000
MTEXTEND
  0
POINT
  5
CA
330
C2
100
AcDbEntity
  8
Defpoints
 62
     0
100
AcDbPoint
 10
3.10231778734557
 20
6.457375977852701
 30
0.0
  0
POINT
  5
CB
330
C2
100
AcDbEntity
  8
Defpoints
 62
     0
100
AcDbPoint
 10
9.850586302992017
 20
6.170577906773957
 30
0.0
  0
POINT
  5
CC
330
C2
100
AcDbEntity
  8
Defpoints
 62
     0
100
AcDbPoint
 10
9.850586302992017
 20
7.618461543415481
 30
0.0
  0
ENDBLK
  5
CE
330
C2
100
AcDbEntity
  8
0
100
AcDbBlockEnd
  0
BLOCK
  5
DC
330
D0
100
AcDbEntity
  8
0
100
AcDbBlockBegin
  2
*D4
 70
     1
 10
0.0
 20
0.0
 30
0.0
  3
*D4
  1

  0
LINE
  5
D1
330
D0
100
AcDbEntity
  8
0
 62
     0
370
    -2
100
AcDbLine
 10
3.493732884557889
 20
6.785133333365621
 30
0.0
 11
2.503330441321512
 21
6.785133333365621
 31
0.0
  0
LINE
  5
D2
330
D0
100
AcDbEntity
  8
0
 62
     0
370
    -2
100
AcDbLine
 10
9.328086302992037
 20
6.125577906773884
 30
0.0
 11
2.503330441321512
 21
6.125577906773885
 31
0.0
  0
LINE
  5
D3
330
D0
100
AcDbEntity
  8
0
 62
     0
370
    -2
100
AcDbLine
 10
2.683330441321512
 20
6.605133333365621
 30
0.0
 11
2.683330441321512
 21
6.305577906773884
 31
0.0
  0
LINE
  5
D4
330
D0
100
AcDbEntity
  8
0
 62
     0
370
    -2
100
AcDbLine
 10
2.683330441321512
 20
6.125577906773885
 30
0.0
 11
2.683330441321512
 21
5.945577906773885
 31
0.0
  0
LINE
  5
D5
330
D0
100
AcDbEntity
  8
0
 62
     0
370
    -2
100
AcDbLine
 10
2.683330441321512
 20
5.945577906773885
 30
0.0
 11
2.503330441321512
 21
5.945577906773885
 31
0.0
  0
SOLID
  5
D6
330
D0
100
AcDbEntity
  8
0
 62
     0
100
AcDbTrace
 10
2.653330441321512
 20
6.605133333365621
 30
0.0
 11
2.713330441321512
 21
6.605133333365621
 31
0.0
 12
2.683330441321512
 22
6.785133333365621
 32
0.0
 13
2.683330441321512
 23
6.785133333365621
 33
0.0
  0
SOLID
  5
D7
330
D0
100
AcDbEntity
  8
0
 62
     0
100
AcDbTrace
 10
2.653330441321512
 20
6.305577906773884
 30
0.0
 11
2.713330441321512
 21
6.305577906773884
 31
0.0
 12
2.683330441321512
 22
6.125577906773885
 32
0.0
 13
2.683330441321512
 23
6.125577906773885
 33
0.0
  0
MTEXT
  5
D8
330
D0
100
AcDbEntity
  8
0
 62
     0
100
AcDbMText
 10
2.158330441321511
 20
5.945577906773886
 30
0.0
 40
0.18
 41
0.0
 71
     5
 72
     1
  1
\A1;0.66
 73
     1
 44
1.0
1001
ACAD
1000
MTEXTBEGIN
1070
    73
1070
     1
1070
    44
1040
1.0
1070
    74
1070
     0
1000
MTEXTEND
  0
POINT
  5
D9
330
D0
100
AcDbEntity
  8
Defpoints
 62
     0
100
AcDbPoint
 10
3.556232884557889
 20
6.785133333365621
 30
0.0
  0
POINT
  5
DA
330
D0
100
AcDbEntity
  8
Defpoints
 62
     0
100
AcDbPoint
 10
9.390586302992037
 20
6.125577906773884
 30
0.0
  0
POINT
  5
DB
330
D0
100
AcDbEntity
  8
Defpoints
 62
     0
100
AcDbPoint
 10
2.683330441321512
 20
6.125577906773885
 30
0.0
  0
ENDBLK
  5
DD
330
D0
100
AcDbEntity
  8
0
100
AcDbBlockEnd
  0
BLOCK
  5
14A
330
13F
100
AcDbEntity
  8
0
100
AcDbBlockBegin
  2
*D6
 70
     1
 10
0.0
 20
0.0
 30
0.0
  3
*D6
  1

  0
LINE
  5
140
330
13F
100
AcDbEntity
  8
0
 62
     0
370
    -2
100
AcDbLine
 10
9.411668880010136
 20
7.062007638772151
 30
0.0
 11
9.411668880010136
 21
8.244179596420057
 31
0.0
  0
LINE
  5
141
330
13F
100
AcDbEntity
  8
0
 62
     0
370
    -2
100
AcDbLine
 10
3.170555302279815
 20
6.999071693889844
 30
0.0
 11
3.170555302279815
 21
8.244179596420057
 31
0.0
  0
LINE
  5
142
330
13F
100
AcDbEntity
  8
0
 62
     0
370
    -2
100
AcDbLine
 10
9.231668880010136
 20
8.064179596420057
 30
0.0
 11
6.651112091144976
 21
8.064179596420057
 31
0.0
  0
LINE
  5
143
330
13F
100
AcDbEntity
  8
0
 62
     0
370
    -2
100
AcDbLine
 10
3.350555302279815
 20
8.064179596420057
 30
0.0
 11
5.931112091144975
 21
8.064179596420057
 31
0.0
  0
SOLID
  5
144
330
13F
100
AcDbEntity
  8
0
 62
     0
100
AcDbTrace
 10
9.231668880010136
 20
8.094179596420056
 30
0.0
 11
9.231668880010136
 21
8.034179596420058
 31
0.0
 12
9.411668880010136
 22
8.064179596420057
 32
0.0
 13
9.411668880010136
 23
8.064179596420057
 33
0.0
  0
SOLID
  5
145
330
13F
100
AcDbEntity
  8
0
 62
     0
100
AcDbTrace
 10
3.350555302279815
 20
8.094179596420056
 30
0.0
 11
3.350555302279815
 21
8.034179596420058
 31
0.0
 12
3.170555302279815
 22
8.064179596420057
 32
0.0
 13
3.170555302279815
 23
8.064179596420057
 33
0.0
  0
MTEXT
  5
146
330
13F
100
AcDbEntity
  8
0
 62
     0
100
AcDbMText
 10
6.291112091144976
 20
8.064179596420057
 30
0.0
 40
0.18
 41
0.0
 71
     5
 72
     1
  1
\A1;6.24
 73
     1
 44
1.0
1001
ACAD
1000
MTEXTBEGIN
1070
    73
1070
     1
1070
    44
1040
1.0
1070
    74
1070
     0
1000
MTEXTEND
  0
POINT
  5
147
330
13F
100
AcDbEntity
  8
Defpoints
 62
     0
100
AcDbPoint
 10
9.411668880010136
 20
6.999507638772151
 30
0.0
  0
POINT
  5
148
330
13F
100
AcDbEntity
  8
Defpoints
 62
     0
100
AcDbPoint
 10
3.170555302279815
 20
6.936571693889844
 30
0.0
  0
POINT
  5
149
330
13F
100
AcDbEntity
  8
Defpoints
 62
     0
100
AcDbPoint
 10
3.170555302279815
 20
8.064179596420057
 30
0.0
  0
ENDBLK
  5
14B
330
13F
100
AcDbEntity
  8
0
100
AcDbBlockEnd
  0
BLOCK
  5
159
330
14D
100
AcDbEntity
  8
0
100
AcDbBlockBegin
  2
*D7
 70
     1
 10
0.0
 20
0.0
 30
0.0
  3
*D7
  1

  0
LINE
  5
14E
330
14D
100
AcDbEntity
  8
0
 62
     0
370
    -2
100
AcDbLine
 10
3.519815461576097
 20
7.216127120483101
 30
0.0
 11
2.373695609148214
 21
7.216127120483101
 31
0.0
  0
LINE
  5
14F
330
14D
100
AcDbEntity
  8
0
 62
     0
370
    -2
100
AcDbLine
 10
9.289168880012464
 20
6.556571693893523
 30
0.0
 11
2.373695609148213
 21
6.556571693893524
 31
0.0
  0
LINE
  5
150
330
14D
100
AcDbEntity
  8
0
 62
     0
370
    -2
100
AcDbLine
 10
2.553695609148214
 20
7.036127120483101
 30
0.0
 11
2.553695609148213
 21
6.736571693893524
 31
0.0
  0
LINE
  5
151
330
14D
100
AcDbEntity
  8
0
 62
     0
370
    -2
100
AcDbLine
 10
2.553695609148213
 20
6.556571693893524
 30
0.0
 11
2.553695609148213
 21
6.376571693893525
 31
0.0
  0
LINE
  5
152
330
14D
100
AcDbEntity
  8
0
 62
     0
370
    -2
100
AcDbLine
 10
2.553695609148213
 20
6.376571693893525
 30
0.0
 11
2.373695609148213
 21
6.376571693893525
 31
0.0
  0
SOLID
  5
153
330
14D
100
AcDbEntity
  8
0
 62
     0
100
AcDbTrace
 10
2.523695609148214
 20
7.036127120483101
 30
0.0
 11
2.583695609148214
 21
7.036127120483101
 31
0.0
 12
2.553695609148214
 22
7.216127120483101
 32
0.0
 13
2.553695609148214
 23
7.216127120483101
 33
0.0
  0
SOLID
  5
154
330
14D
100
AcDbEntity
  8
0
 62
     0
100
AcDbTrace
 10
2.523695609148214
 20
6.736571693893524
 30
0.0
 11
2.583695609148213
 21
6.736571693893524
 31
0.0
 12
2.553695609148213
 22
6.556571693893524
 32
0.0
 13
2.553695609148213
 23
6.556571693893524
 33
0.0
  0
MTEXT
  5
155
330
14D
100
AcDbEntity
  8
0
 62
     0
100
AcDbMText
 10
2.028695609148213
 20
6.376571693893525
 30
0.0
 40
0.18
 41
0.0
 71
     5
 72
     1
  1
\A1;0.66
 73
     1
 44
1.0
1001
ACAD
1000
MTEXTBEGIN
1070
    73
1070
     1
1070
    44
1040
1.0
1070
    74
1070
     0
1000
MTEXTEND
  0
POINT
  5
156
330
14D
100
AcDbEntity
  8
Defpoints
 62
     0
100
AcDbPoint
 10
3.582315461576097
 20
7.216127120483101
 30
0.0
  0
POINT
  5
157
330
14D
100
AcDbEntity
  8
Defpoints
 62
     0
100
AcDbPoint
 10
9.351668880012464
 20
6.556571693893523
 30
0.0
  0
POINT
  5
158
330
14D
100
AcDbEntity
  8
Defpoints
 62
     0
100
AcDbPoint
 10
2.553695609148213
 20
6.556571693893524
 30
0.0
  0
ENDBLK
  5
15A
330
14D
100
AcDbEntity
  8
0
100
AcDbBlockEnd
  0
ENDSEC
  0
SECTION
  2
ENTITIES
  0
TEXT
  5
BE
330
1F
100
AcDbEntity
  8
tx
  6
Continuous
 48
0.116666
100
AcDbText
 10
4.168311251915643
 20
4.58130026881443
 30
0.0
 40
0.09375
  1
SCALE : 1" = 1"
  7
REG
 11
4.168311251915643
 21
4.67505026881443
 31
0.0
100
AcDbText
 73
     3
  0
TEXT
  5
BF
330
1F
100
AcDbEntity
  8
L
  6
Continuous
 62
     3
 48
0.116666
100
AcDbText
 10
4.168311251915643
 20
4.862521954176401
 30
0.0
 40
0.140625
  1
TRANSFORMER RACEWAY COVER #1986
  7
REG
100
AcDbText
  0
LWPOLYLINE
  5
C0
330
1F
100
AcDbEntity
  8
L
  6
Continuous
 62
     5
 48
0.116666
100
AcDbPolyline
 90
        2
 70
     0
 43
0.028125
 10
4.074575409234544
 20
4.768786111495415
 10
8.886546314406846
 20
4.768786111495415
  0
LWPOLYLINE
  5
13D
330
1F
100
AcDbEntity
  8
MAIN
 62
     3
 48
0.116666
100
AcDbPolyline
 90
       23
 70
     1
 43
0.0
 10
3.582315461576097
 20
7.216127120483101
 10
9.263411139276893
 20
7.149497520205763
 42
-0.4108155905952557
 10
9.411668880010136
 20
6.999507638772151
 10
9.411668880010136
 20
6.866571693891195
 10
9.391668880011518
 20
6.846571693891668
 10
9.411668880010136
 20
6.826571693891231
 10
9.411668880010136
 20
6.616571693893924
 42
-0.4142135623701352
 10
9.351668880010645
 20
6.556571693893523
 10
9.351668880014283
 20
6.556571693893523
 42
-0.4142135623819748
 10
9.321668880011809
 20
6.586571693893269
 10
9.321668880011809
 20
6.999507638771241
 42
0.4108155905988501
 10
9.26236578371633
 20
7.059503591345595
 10
3.581270106017353
 20
7.126133191622024
 42
0.2008964278501938
 10
3.538316160315542
 20
7.10873233738031
 10
3.529713070235327
 20
7.100197525795842
 42
-0.1978771531927088
 10
3.424070465242646
 20
7.056685271618256
 10
3.380668880007458
 20
7.056685271617347
 42
1.036554207458459
 10
3.389284246707273
 20
6.816767491079112
 42
-0.9999999999999998
 10
3.395739661806754
 20
6.72699930286118
 42
-1.036554207465266
 10
3.380668880007458
 20
7.146685271617492
 10
3.424070465242646
 20
7.146685271617492
 42
0.1978771531934767
 10
3.466327507240446
 20
7.16409017328889
 10
3.474930597322479
 20
7.172624984876996
 42
-0.2008964278446
  0
DIMENSION
  5
13E
330
1F
100
AcDbEntity
  8
0
100
AcDbDimension
  2
*D6
 10
3.170555302279815
 20
8.064179596420057
 30
0.0
 11
6.291112091144976
 21
8.064179596420057
 31
0.0
 70
    32
 71
     5
 42
6.24111357773032
  3
Standard
100
AcDbAlignedDimension
 13
9.411668880010136
 23
6.999507638772151
 33
0.0
 14
3.170555302279815
 24
6.936571693889844
 34
0.0
100
AcDbRotatedDimension
  0
DIMENSION
  5
14C
330
1F
100
AcDbEntity
  8
0
100
AcDbDimension
  2
*D7
 10
2.553695609148213
 20
6.556571693893524
 30
0.0
 11
2.028695609148213
 21
6.376571693893525
 31
0.0
 70
    32
 71
     5
 42
0.6595554265895763
  3
Standard
100
AcDbAlignedDimension
 13
3.582315461576097
 23
7.216127120483101
 33
0.0
 14
9.351668880012464
 24
6.556571693893523
 34
0.0
 50
90.0
100
AcDbRotatedDimension
  0
ENDSEC
  0
SECTION
  2
OBJECTS
  0
DICTIONARY
  5
C
330
0
100
AcDbDictionary
281
     1
  3
ACAD_COLOR
350
122
  3
ACAD_GROUP
350
D
  3
ACAD_LAYOUT
350
1A
  3
ACAD_MATERIAL
350
121
  3
ACAD_MLINESTYLE
350
17
  3
ACAD_PLOTSETTINGS
350
19
  3
ACAD_PLOTSTYLENAME
350
E
  3
ACAD_TABLESTYLE
350
123
  3
ACDBHEADERROUNDTRIPXREC
350
169
  3
AcDbVariableDictionary
350
15C
  0
DICTIONARY
  5
131
330
2
100
AcDbDictionary
280
     1
281
     1
  3
ACAD_LAYERSTATES
360
132
  0
DICTIONARY
  5
122
102
{ACAD_REACTORS
330
C
102
}
330
C
100
AcDbDictionary
281
     1
  0
DICTIONARY
  5
D
102
{ACAD_REACTORS
330
C
102
}
330
C
100
AcDbDictionary
281
     1
  0
DICTIONARY
  5
1A
102
{ACAD_REACTORS
330
C
102
}
330
C
100
AcDbDictionary
281
     1
  3
Layout1
350
1E
  3
Layout2
350
26
  3
Model
350
22
  0
DICTIONARY
  5
121
102
{ACAD_REACTORS
330
C
102
}
330
C
100
AcDbDictionary
281
     1
  0
DICTIONARY
  5
17
102
{ACAD_REACTORS
330
C
102
}
330
C
100
AcDbDictionary
281
     1
  3
Standard
350
18
  0
DICTIONARY
  5
19
102
{ACAD_REACTORS
330
C
102
}
330
C
100
AcDbDictionary
281
     1
  0
ACDBDICTIONARYWDFLT
  5
E
102
{ACAD_REACTORS
330
C
102
}
330
C
100
AcDbDictionary
281
     1
  3
Normal
350
F
100
AcDbDictionaryWithDefault
340
F
  0
DICTIONARY
  5
123
102
{ACAD_REACTORS
330
C
102
}
330
C
100
AcDbDictionary
281
     1
  3
Standard
350
124
  0
DICTIONARY
  5
169
102
{ACAD_REACTORS
330
C
102
}
330
C
100
AcDbDictionary
281
     1
  0
DICTIONARY
  5
15C
102
{ACAD_REACTORS
330
C
102
}
330
C
100
AcDbDictionary
281
     1
  3
CTABLESTYLE
350
15D
  3
DIMASSOC
350
15E
  3
PROJECTNAME
350
15F
  0
DICTIONARY
  5
132
102
{ACAD_REACTORS
330
131
102
}
330
131
100
AcDbDictionary
281
     1
  0
LAYOUT
  5
1E
102
{ACAD_XDICTIONARY
360
16A
102
}
102
{ACAD_REACTORS
330
1A
102
}
330
1A
100
AcDbPlotSettings
  1

  2
EPSON Stylus COLOR 3000
  4

  6

 40
0.0
 41
0.0
 42
0.0
 43
0.0
 44
0.0
 45
0.0
 46
0.0
 47
0.0
 48
0.0
 49
0.0
140
0.0
141
0.0
142
1.0
143
1.0
 70
   688
 72
     0
 73
     0
 74
     5
  7

 75
    16
147
1.0
148
0.0
149
0.0
100
AcDbLayout
  1
Layout1
 70
     1
 71
     1
 10
0.0
 20
0.0
 11
12.0
 21
9.0
 12
0.0
 22
0.0
 32
0.0
 14
1.000000000000000E+20
 24
1.000000000000000E+20
 34
1.000000000000000E+20
 15
-1.000000000000000E+20
 25
-1.000000000000000E+20
 35
-1.000000000000000E+20
146
0.0
 13
0.0
 23
0.0
 33
0.0
 16
1.0
 26
0.0
 36
0.0
 17
0.0
 27
1.0
 37
0.0
 76
     0
330
1B
  0
LAYOUT
  5
26
102
{ACAD_XDICTIONARY
360
16E
102
}
102
{ACAD_REACTORS
330
1A
102
}
330
1A
100
AcDbPlotSettings
  1

  2
EPSON Stylus COLOR 3000
  4

  6

 40
0.0
 41
0.0
 42
0.0
 43
0.0
 44
0.0
 45
0.0
 46
0.0
 47
0.0
 48
0.0
 49
0.0
140
0.0
141
0.0
142
1.0
143
1.0
 70
   688
 72
     0
 73
     0
 74
     5
  7

 75
    16
147
1.0
148
0.0
149
0.0
100
AcDbLayout
  1
Layout2
 70
     1
 71
     2
 10
0.0
 20
0.0
 11
12.0
 21
9.0
 12
0.0
 22
0.0
 32
0.0
 14
0.0
 24
0.0
 34
0.0
 15
0.0
 25
0.0
 35
0.0
146
0.0
 13
0.0
 23
0.0
 33
0.0
 16
1.0
 26
0.0
 36
0.0
 17
0.0
 27
1.0
 37
0.0
 76
     0
330
23
  0
LAYOUT
  5
22
102
{ACAD_XDICTIONARY
360
16C
102
}
102
{ACAD_REACTORS
330
1A
102
}
330
1A
100
AcDbPlotSettings
  1

  2
EPSON Stylus COLOR 3000
  4

  6

 40
0.0
 41
0.0
 42
0.0
 43
0.0
 44
0.0
 45
0.0
 46
0.0
 47
0.0
 48
0.0
 49
0.0
140
0.0
141
0.0
142
1.0
143
1.0
 70
  1712
 72
     0
 73
     0
 74
     0
  7

 75
     0
147
1.0
148
0.0
149
0.0
100
AcDbLayout
  1
Model
 70
     1
 71
     0
 10
0.0
 20
0.0
 11
12.0
 21
9.0
 12
0.0
 22
0.0
 32
0.0
 14
0.0
 24
0.0
 34
0.0
 15
0.0
 25
0.0
 35
0.0
146
0.0
 13
0.0
 23
0.0
 33
0.0
 16
1.0
 26
0.0
 36
0.0
 17
0.0
 27
1.0
 37
0.0
 76
     0
330
1F
  0
MLINESTYLE
  5
18
102
{ACAD_REACTORS
330
17
102
}
330
17
100
AcDbMlineStyle
  2
STANDARD
 70
     0
  3

 62
   256
 51
90.0
 52
90.0
 71
     2
 49
0.5
 62
   256
  6
BYLAYER
 49
-0.5
 62
   256
  6
BYLAYER
  0
ACDBPLACEHOLDER
  5
F
102
{ACAD_REACTORS
330
E
102
}
330
E
  0
TABLESTYLE
  5
124
102
{ACAD_REACTORS
330
123
102
}
330
123
100
AcDbTableStyle
  3
Standard
 70
     0
 71
     0
 40
0.06
 41
0.06
280
     0
281
     0
  7
Standard
140
0.18
170
     2
 62
     0
 63
     7
283
     0
274
    -2
284
     1
 64
     0
275
    -2
285
     1
 65
     0
276
    -2
286
     1
 66
     0
277
    -2
287
     1
 67
     0
278
    -2
288
     1
 68
     0
279
    -2
289
     1
 69
     0
  7
Standard
140
0.25
170
     5
 62
     0
 63
     7
283
     0
274
    -2
284
     1
 64
     0
275
    -2
285
     1
 65
     0
276
    -2
286
     1
 66
     0
277
    -2
287
     1
 67
     0
278
    -2
288
     1
 68
     0
279
    -2
289
     1
 69
     0
  7
Standard
140
0.18
170
     5
 62
     0
 63
     7
283
     0
274
    -2
284
     1
 64
     0
275
    -2
285
     1
 65
     0
276
    -2
286
     1
 66
     0
277
    -2
287
     1
 67
     0
278
    -2
288
     1
 68
     0
279
    -2
289
     1
 69
     0
  0
DICTIONARYVAR
  5
15D
102
{ACAD_REACTORS
330
15C
102
}
330
15C
100
DictionaryVariables
280
     0
  1
STANDARD
  0
DICTIONARYVAR
  5
15E
102
{ACAD_REACTORS
330
15C
102
}
330
15C
100
DictionaryVariables
280
     0
  1
1
  0
DICTIONARYVAR
  5
15F
102
{ACAD_REACTORS
330
15C
102
}
330
15C
100
DictionaryVariables
280
     0
  1

  0
DICTIONARY
  5
16A
330
1E
100
AcDbDictionary
280
     1
281
     1
  3
ACAD_XREC_ROUNDTRIP
360
16B
  0
DICTIONARY
  5
16E
330
26
100
AcDbDictionary
280
     1
281
     1
  3
ACAD_XREC_ROUNDTRIP
360
16F
  0
DICTIONARY
  5
16C
330
22
100
AcDbDictionary
280
     1
281
     1
  3
ACAD_XREC_ROUNDTRIP
360
16D
  0
XRECORD
  5
16B
102
{ACAD_REACTORS
330
16A
102
}
330
16A
100
AcDbXrecord
280
     1
102
SHADEPLOT
 70
     0
102
SHADEPLOTRESLEVEL
 70
     2
102
SHADEPLOTCUSTOMDPI
 70
   300
  0
XRECORD
  5
16F
102
{ACAD_REACTORS
330
16E
102
}
330
16E
100
AcDbXrecord
280
     1
102
SHADEPLOT
 70
     0
102
SHADEPLOTRESLEVEL
 70
     2
102
SHADEPLOTCUSTOMDPI
 70
   300
  0
XRECORD
  5
16D
102
{ACAD_REACTORS
330
16C
102
}
330
16C
100
AcDbXrecord
280
     1
102
SHADEPLOT
 70
     0
102
SHADEPLOTRESLEVEL
 70
     2
102
SHADEPLOTCUSTOMDPI
 70
   300
  0
ENDSEC
  0
EOF
